Wel Cum 2 OClan ^ ^!

^ ^!
IndexIndex  CalendarCalendar  GalleryGallery  Trợ giúpTrợ giúp  Thành viênThành viên  NhómNhóm  Tìm kiếmTìm kiếm  Đăng kýĐăng ký  Đăng Nhập  
Untitled 2Untitled 1Untitled 1Untitled 1Untitled 2Untitled 3

Share|
Tiêu đề

Step Up 3 (2010) mHD.AC3.x264-EPiK

Xem chủ đề cũ hơn Xem chủ đề mới hơn Go down
Tác giảThông điệp

OXit
Lv 17

Giới Tính : Gay
Posts Posts : 161
Gold Gold : 276583
Được Cảm Ơn Được Cảm Ơn : 46
Tuổi Tuổi : 23
Đến Từ Đến Từ : C:\WINDOWS\system32
Pet :
Tài năng của OXit
Hạng: Lv 17
Level:161
Tài năng:/300



Mức độ vi phạm còn lại Mức độ vi phạm còn lại: 100% 100%

Bài gửiTiêu đề: Step Up 3 (2010) mHD.AC3.x264-EPiK Tue Dec 07, 2010 3:00 pm


Format : Matroska
File size : 2.51 GiB
Duration : 1h 47mn
Overall bit rate : 3 347 Kbps
Encoded date : UTC 2010-11-26 09:59:58
Writing library : libebml v1.0.0 + libmatroska v1.0.0

Video
ID : 2
Format : AVC
Format profile : High@L4.1
Codec ID : V_MPEG4/ISO/AVC
Duration : 1h 47mn
Bit rate : 2 833 Kbps
Width : 1 280 pixels
Height : 688 pixels
Display aspect ratio : 1.860
Frame rate : 23.976 fps
Color space : YUV
Bits/(Pixel*Frame) : 0.134
Stream size : 2.12 GiB (85%)

Audio
ID : 1
Format : AC-3
Duration : 1h 47mn
Bit rate mode : Constant
Bit rate : 448 Kbps
Channel(s) : 6 channels
Sampling rate : 48.0 KHz
Bit depth : 16 bits
Stream size : 343 MiB (13%)

Text
ID : 3
Format : UTF-8
Codec ID : S_TEXT/UTF8
Codec ID/Info : UTF-8 Plain Text
Language : Vietnamese



Trong suốt hơn 100 năm phát triển và tồn tại, điện ảnh luôn xuất hiện những trường hợp đặc biệt, ví dụ như: Dù kịch bản có dở đến mấy, quay phim chẳng có gì nổi bật, đạo diễn chỉ dừng ở mức trung bình nhưng chỉ cần một giây phút xuất thần của diễn viên, một cái kết đầy bất ngờ vào phút cuối, hay một thử nghiệm đột phá về kỹ thuật có thể kéo lại toàn bộ bộ phim. Step Up 3-D cũng là một trong số những trường hợp đặc biệt của điện ảnh.



Sau thành công rực rỡ của hai phần đầu được ra mắt lần lượt vào năm 2006 và 2008, hãng Summit Entertainment và Touchstone Pictures đã quyết định sản xuất tiếp phần 3 của bộ phim nổi tiếng về vũ đạo Step Up, dưới định dạng 3D. Đạo diễn John Chu - người đã từng thực hiện phần 2, sẽ tiếp tục mang đến màu sắc âm nhạc sôi động, trẻ trung cho Step Up 3D.



Nội dung của phần 3 bắt đầu bằng việc các thành viên của trường nghệ thuật Maryland tới Paris để tham dự cuộc thi nhảy quốc tế. Sau đó, Moose - một thành viên trong đoàn đã lỡ mất chuyến bay quay trở lại Baltimore. Trong thời gian ở lại Paris, Moose nhanh chóng có thêm những người bạn mới tại đây và được họ giới thiệu những động tác nhảy hip hop đỉnh cao của đường phố Paris. Và tất cả sẽ cùng kết hợp với nhóm sinh viên của trường nghệ thuật Maryland để tranh tài tại cuộc thi dành cho những vũ công giỏi nhất thế giới.



Dàn diễn viên đẹp, âm nhạc hay, những màn vũ đạo đặc sắc chính là điểm mạnh đã tạo nên sự thành công cho loạt phim Step Up. Cũng giống như hai phần trước, trong phần 3 này sẽ xuất hiện một cặp nhảy mới do hai diễn viên trẻ đẹp Rick Malambri và Sharni Vinson thủ vai. Thêm vào đó là sự trở lại của Moose - một trong những nhân vật được yêu thích nhất trong phần 2, và Camille - cô em gái của nhân vật chính Tyler Gage trong phần 1. Có thông tin rằng, Channing Tatum và Robert Hoffman - hai nam diễn viên chính của hai phần trước cũng sẽ xuất hiện trong tập phim mới nhất này trong vai trò khách mời. Lần này, bối cảnh của Step Up không chỉ diễn ra ở thành phố New York sầm uất, mà phim còn được quay tại thủ đô Paris tráng lệ của nước Pháp - nơi những bộ môn nghệ thuật đường phố rất phát triển.



Âm nhạc của Step Up 3D do các nghệ sĩ tên tuổi như Flo Rida, B.o.B, Trey Songz hay Sean Paul thể hiện, kết hợp với những màn vũ đạo đỉnh cao và "thật" hơn bao giờ hết với hiệu ứng 3D. 2010 là một năm bùng nổ của phim 3D, và ngoài phim hoạt hình, hành động bom tấn như trước, khán giả sẽ lần đầu tiên được trải nghiệm công nghệ này ở nhiều thể loại phim khác. Step Up 3 là bộ phim ca nhạc, vũ đạo đầu tiên được phát hành tại các rạp chiếu dưới định dạng 3D.



yêu thếyêu thế

Click Here => <= Click Here

Hãy cảm ơn bài viết của OXit bằng cách bấm vào"" nhé!!!

Về Đầu Trang Go down

http://oclan.inmyclan.com

Tiêuđề

Step Up 3 (2010) mHD.AC3.x264-EPiK

Xem chủ đề cũ hơn Xem chủ đề mới hơn Về Đầu Trang
Trang 1 trong tổng số 1 trang
::.
Permissions in this forum:Bạn không có quyền trả lời bài viết
Wel Cum 2 OClan ^ ^! :: Film-
Forumotion.com | © phpBB | Free forum support | Liên hệ | Report an abuse | Have a free blog with Sosblogs